вход на сайт

Имя пользователя :
Пароль :

Восстановление пароля Регистрация
Красавцы / Entourage // Сезон 4, эпизоды с 1 по 12 (из 12) (Комедия, Драма , 2007) [WEB-DL 720p, Профессиональный (многоголосый, закадровый от MTV Russia) + Оригинал]
Рейтинг:
(голосов: 1)



[img]{THEME}/images/logopost.png[/img]



Красавцы / Entourage

Сезон 4, Эпизоды с 1 по 12 (из 12)

Год выпуска: 2007
Страна: США
Производство: HBO
Жанр: Комедия, Драма

Режиссёры: Даг Эллин, Джулиан Фарино
В ролях: Кевин Коннолли, Эдриан Гренье, Кевин Диллон, Джерри Феррара, Перри Ривз, Джереми Пивен и др.

Перевод: Профессиональный (многоголосый, закадровый от MTV Russia) + Оригинал
Озвучка: MTV
Субтитры: Английские

Описание: Винсент Чейз родился и вырос в нью-йоркском районе Квинс. Став актером, он даже не мог представить, что бешеный успех обрушится на его голову после премьеры первого же фильма! Получив многомиллионный гонорар, Винс вместе с друзьями детства Эриком, Черепахой и Драмой быстренько пакует чемоданы и отправляется в Голливуд. Роскошный особняк в самом престижном районе LA, модели с обложек Playboy, мило плескающиеся в бассейне, новенький Rolls-Royce Phantom, купленный на последние деньги и Maserati, полученный практически даром — сладкая голливудская жизнь окружает Винса и его друзей, но человеческие истории оказываются куда более затейливы, чем все соблазны Голливуда…

Список эпизодов: ▼
Эпизод 01. Welcome to the Jungle
Эпизод 02. The First Cut Is the Deepest
Эпизод 03. Malibooty
Эпизод 04. Sorry, Harvey
Эпизод 05. he Dream Team
Эпизод 06. The WeHo Ho
Эпизод 07. The Day Fuckers
Эпизод 08. Garys Desk
Эпизод 09. The Young and the Stoned
Эпизод 10. Snow Job
Эпизод 11. No Cannes Do
Эпизод 12. The Cannes KidsРелиз:

Внимание! В сериале присутствует ненормативная лексика и сцены с обнаженной натурой!

Качество: WEB-DL 720p
Продолжительность: 00:25:00 ~ Средняя продолжительность для одного эпизода

Формат: MKV
Видео кодек: AVC
Аудио кодек: AC3
Свойства видео: 1280x720 (16:9), 23.976 fps, MPEG-4 AVC, ~4000 kbps avg, 0.182 bit/pixel
Свойства аудио#1: 48 kHz, AC3, 2/0 (L,R), ~192.00 kbps avg |MTV|
Свойства аудио#2: 48 kHz, AC3, 3/2 (L,C,R,l,r) + LFE ch, ~384.00 kbps avg |Оригинал|

MediaInfo ▼
General
Complete name : Entourage.S04E01.720p.WEB-DL.Rus.Eng.mkv
Format : Matroska
Format version : Version 2
File size : 847 MiB
Duration : 29mn 52s
Overall bit rate : 4 672 Kbps
Movie name : Entourage [Season 4] (2007) - Release for HDCLUBby Pro_Rock_
Encoded date : UTC 2012-01-23 00:28:10
Writing application : mkvmerge v5.2.1 (A Far Off Place) built on Jan2 2012 23:21:10
Writing library : libebml v1.2.3 + libmatroska v1.3.0

Video
ID: 1
Format : AVC
Format/Info : Advanced Video Codec
Format profile : [email protected]
Format settings, CABAC : No
Format settings, ReFrames : 2 frames
Format settings, GOP : N=1
Codec ID : V_MPEG4/ISO/AVC
Duration : 29mn 52s
Bit rate : 4 003 Kbps
Width : 1 280 pixels
Height : 720 pixels
Display aspect ratio : 16:9
Frame rate : 23.976 fps
Color space : YUV
Chroma subsampling : 4:2:0
Bit depth : 8 bits
Scan type : Progressive
Bits/(Pixel*Frame) : 0.181
Stream size : 725 MiB (86%)
Title : Release for HDCLUBby Pro_Rock_
Language : English
Color primaries : BT.709-5, BT.1361, IEC 61966-2-4, SMPTE RP177
Transfer characteristics : BT.709-5, BT.1361
Matrix coefficients : BT.709-5, BT.1361, IEC 61966-2-4 709, SMPTE RP177

Audio #1
ID : 2
Format: AC-3
Format/Info : Audio Coding 3
Mode extension : CM (complete main)
Codec ID : A_AC3
Duration : 29mn 52s
Bit rate mode : Constant
Bit rate : 192 Kbps
Channel(s) : 2 channels
Channel positions : Front: L R
Sampling rate : 48.0 KHz
Bit depth : 16 bits
Compression mode : Lossy
Stream size : 41.0 MiB (4%)
Title : DD 2.0 @ 192 kbps – Многоголосый закадровый (MTV)
Language : Russian

Audio #2
ID : 3
Format : AC-3
Format/Info : Audio Coding
Mode extension : CM (complete main)
Codec ID : A_AC3
Duration : 29mn 52s
Bit rate mode : Constant
Bit rate : 384 Kbps
Channel(s) : 6 channels
Channel positions : Front: L C R, Side: L R, LFE
Sampling rate : 48.0 KHz
Bit depth : 16 bits
Compression mode : Lossy
Stream size : 82.0 MiB (8%)
Title : DD 5.1 @ 384 kbps
Langua
0f5554779cb8d13b702b0e5dd1267c2b0ffdf20dКрасавцы / Entourage // Сезон 4, эпизоды с 1 по 12 (из 12) (Комедия, Драма , 2007) [WEB-DL 720p, Профессиональный (многоголосый, закадровый от MTV Russia) + Оригинал] Красавцы / Entourage // Сезон 4, эпизоды с 1 по 12 (из 12) (Комедия, Драма , 2007) [WEB-DL 720p, Профессиональный (многоголосый, закадровый от MTV Russia) + Оригинал] " />

Аплоадер: Админ, дата: 15-02-2012, 11:00, торрент скачан: 359 раз

Понравилась раздача? Посмотрите эти:
  • Красавцы / Entourage // Сезон 7, эпизоды с 1 по 10 (из 10) (Комедия, драма, ...
  • Нубы / Noobz (Блейк Фриман, Комедия, 2012) [BDRemux 1080p, Профессиональный ...
  • Водитель / The Driver (Уолтер Хилл, Боевик, триллер, драма, криминал, 1978) ...
  • Красавцы / Entourage // Сезон 3, эпизоды с 1 по 20 (из20) (Джулиан Фарино и ...
  • Красавцы / Entourage // Сезон 4, эпизоды с 1 по 12 (из 12) (Джулиан Фарино ...
  • Красавцы / Entourage // сезон 5, эпизоды с 1 по 12 (из 12) (Дуг Эллин, коме ...
  • Красавцы / Entourage // сезон 6, эпизоды с 1 по 12 (из 12) (Дуг Эллин, коме ...
  • Блудливая Калифорния / Californication // Cезон 1, Эпизоды с 1 по 12 (из 12 ...
  • Красавцы / Entourage // Сезон 1, эпизоды с 1 по 8 (из 8) (Комедия, Драма , ...
  • Красавцы / Entourage // Сезон 2, эпизоды с 1 по 14 (из 14) (Комедия, Драма ...
  • Красавцы / Entourage // Сезон 3, эпизоды с 1 по 20 (из 20) (Комедия, Драма ...
  • Красавцы / Entourage // Сезон 1, эпизоды с 1 по 8 (из 8) (Комедия, Драма, 2 ...
  • Красавцы / Entourage // Сезон 2, эпизоды с 1 по 14 (из 14) (Комедия, Драма, ...
  • Красавцы / Entourage // Сезон 3, эпизоды с 1 по 20 (из 20) (Комедия, Драма, ...
  • Красавцы / Entourage // Сезон 4, эпизоды с 1 по 12 (из 12) (Комедия, Драма, ...
  • Блудливая Калифорния / Californication // Сезон 5, Эпизоды с 1 по 12 (из 12 ...
  • Красавцы / Entourage // Сезон 5, эпизоды с 1 по 12 (из 12) (Комедия, Драма ...
  • Красавцы / Entourage // Сезон 5, эпизоды с 1 по 12 (из 12) (Комедия, Драма, ...
  • Красавцы / Entourage // Сезон 6, эпизоды с 1 по 12 (из 12) (Комедия, Драма ...
  • Красавцы / Entourage // Сезон 6, эпизоды с 1 по 12 (из 12) (Даг Эллин, Джу ...
  • Красавцы / Entourage // Сезон 1, эпизоды с 1 по 8 (из 8) (Джулиан Фарино, ...
  • Красавцы / Entourage // Сезон 2, эпизоды с 1 по 14 (из 14) (Джулиан Фарин ...
  • Красавцы / Entourage // Сезон 5 / Эпизоды с 1 по 12 (из 12) (Джулиан Фарино ...
  • Красавцы / Entourage // сезон 7, эпизоды с 1 по 10 (из 10) (Дуг Эллин, коме ...
  • Красавцы / Entourage // Cезон 8, эпизоды с 1 по 8 (из 8) (Комедия, драма, ...
  • Информация
    Посетители, находящиеся в группе Гости, не могут оставлять комментарии к данной публикации.