вход на сайт

Имя пользователя :
Пароль :

Восстановление пароля Регистрация
Континуум: Вебсериал / Continuum Web Series // Сезон 1, эпизоды с 1 по 9 (из 9) (Фантастика, 2012) [WEBRip, Профессиональный (одноголосый, закадровый)]
Рейтинг:
(голосов: 1)



[img]{THEME}/images/logopost.png[/img]



Континуум: Вебсериал / Continuum Web Series
Сезон 1, эпизоды с 1 по 9 (из 9)

Год выпуска: 2012
Страна: США, Канада
Производство: Loud Pictures
Жанр: Фантастика

Режиссер: Блейк Кэлхун
В ролях: Мелани Меркоски, Тэрин О’Нилл, Брэд Хоукинс

Перевод: Профессиональный (одноголосый, закадровый)
Озвучка: А. Домнина
Субтитры: Нет

Описание:Одна женщина просыпается на брошенном космическом корабле. Кто она? Нет памяти, нет контактов, нет надежды…
Список эпизодов ▼
Эпизод 01. Суперновокаин / Supernovacaine
Эпизод 02. Зоркое око на борту / The eagle eye has landed
Эпизод 03. Шаг назад в будущее / Step back to the future
Эпизод 04. Горизонт событий / Event horizontal
Эпизод 05. Одиночка / Han soloist
Эпизод 06. Два близких контакта / Two close encounters
Эпизод 07. Затерянный в моем пространстве / Lost in myspace
Эпизод 08. Экс-терминатор / The ex-terminator
Эпизод 09. Космическая аномалия / A space oddity



Все раздачи сериала

Качество: WEBRip
Продолжительность: по ~ 00:05:00

Формат: AVI
Видео кодек: XVID
Аудио кодек: MP3
Видео: 720x400 (1.80:1), 23.976 fps, XviD MPEG-4 ~1987 kbps avg, 0.29 bit/pixel
Аудио: 48 kHz, MPEG Layer 3, 2 ch, ~192.00 kbps avg

MediaInfo ▼
Формат : AVI
Формат/Информация : Audio Video Interleave
Размер файла : 92,6 Мбайт
Продолжительность : 5 м. 54 с.
Общий поток : 2189 Кбит/сек
Программа кодирования : VirtualDubMod 1.5.10.2 (build 2542/release)
Библиотека кодирования : VirtualDubMod build 2542/release

Видео
Идентификатор : 0
Формат : MPEG-4 Visual
Профиль формата : Advanced [email protected]
Параметр BVOP формата : 1
Параметр QPel формата : Нет
Параметр GMC формата : Без точки перехода
Параметр матрицы формата : Default (MPEG)
Идентификатор кодека : XVID
Идентификатор кодека/Подсказка : XviD
Продолжительность : 5 м. 54 с.
Битрейт : 1987 Кбит/сек
Ширина : 720 пикселей
Высота : 400 пикселей
Соотношение сторон : 16:9
Частота кадров : 23,976 кадра/сек
Цветовое пространство : YUV
Субдискретизация насыщенности : 4:2:0
Битовая глубина : 8 бит
Тип развёртки : Прогрессивная
Метод сжатия : С потерями
Бит/(Пиксели*Кадры) : 0.288
Размер потока : 84,0 Мбайт (91%)
Библиотека кодирования : XviD 64

Аудио
Идентификатор : 1
Формат : MPEG Audio
Версия формата : Version 1
Профиль формата : Layer 3
Режим : Joint stereo
Идентификатор кодека : 55
Идентификатор кодека/Подсказка : MP3
Продолжительность : 5 м. 54 с.
Вид битрейта : Постоянный
Битрейт : 192 Кбит/сек
Каналы : 2 канала
Частота : 48,0 КГц
Метод сжатия : С потерями
Размер потока : 8,12 Мбайт (9%)
Выравнивание : Соединение по промежуткам
Продолжительность промежутка : 42 мс. (1,00 видеокадр)
Время предзагрузки промежутка : 504 мс.

Как закачать отдельный файл из торрента!


bd1cbe1e72a5e921d295ec3ca5fb7e8294650666Континуум: Вебсериал / Continuum Web Series // Сезон 1, эпизоды с 1 по 9 (из 9) (Фантастика, 2012) [WEBRip, Профессиональный (одноголосый, закадровый)] Континуум: Вебсериал / Continuum Web Series // Сезон 1, эпизоды с 1 по 9 (из 9) (Фантастика, 2012) [WEBRip, Профессиональный (одноголосый, закадровый)] " />

Аплоадер: Админ, дата: 3-05-2013, 13:22, торрент скачан: 359 раз

Понравилась раздача? Посмотрите эти:
  • Грязная кампания за честные выборы / The Campaign (Джей Роуч , Комедия,201 ...
  • Слежка / The Letter (Джей Ананья, Триллер, драма, 2012) [DVDRip, Профессион ...
  • Астрал на улице Арлетт / 388 Arletta Avenue (Рэндолл Коул, Триллер, 2011) [ ...
  • Это - Англия. Год 1986 / This Is England 86 // Сезон 1, эпизоды с 1 по 4 (и ...
  • Двенадцать бедствий на Рождество / The 12 Disasters of Christmas (Стивен Р. ...
  • Легенда о МорДу / The Legend of MorDu (Брайан Ларсен, Короткометражный, ска ...
  • Злые птицы: Хэллоуин / Angry Birds: HamOWeen (Джей Ройвайнен, Мультфильм, к ...
  • Вечерний Ургант // Сезон 2. Выпуск 56 (ТВ-шоу, 11.12.2012) [SATRip, Не треб ...
  • Бог любви / God of Love (Люк Мэзени, Короткометражка, фэнтези, комедия, мел ...
  • Любовь по расписанию / Поезд (Сергей Мезенцев, мелодрама, 2012) [HDTVRip, Н ...
  • Вечерний Ургант // Сезон 2. Выпуск 62 (ТВ-шоу, 19.12.2012) [SATRip, Не треб ...
  • Вечерний Ургант // Сезон 2. Выпуск 63 (ТВ-шоу, 20.12.2012) [SATRip, Не треб ...
  • Кейси Джонс / Casey Jones (Иларион Бэнкс, Короткометражка, фэнтези, боевик, ...
  • Заместитель / Il supplente (Андреа Жублин, Короткометражка, комедия, 2007) ...
  • Вечерний Ургант // Сезон 2. Выпуск 64 (ТВ-шоу, 21.12.2012) [SATRip, Не треб ...
  • Вечерний Ургант // Сезон 2. Выпуск 66 (ТВ-шоу, 25.12.2012) [SATRip, Не треб ...
  • Вечерний Ургант // Сезон 2. Выпуск 68 (ТВ-шоу, 27.12.2012) [SATRip, Не треб ...
  • Дорога на... / Road to (Таисия Игуменцева, Комедия, короткометражный, 2011) ...
  • Покорить высоту / Take It to the Limit (Сэм Кит / Sam Kieth, семейный, 2000 ...
  • Светлячок. Воссоединение Коричневых плащей к 10 годовщине / Firefly 10th An ...
  • А что насчет тебя? / How About You (Энтони Бирн, Драма, комедия, 2007) [DVD ...
  • Детский душ / Baby Shower (Pablo Illanes, Ужасы, 2011) [DVDRip, Любительски ...
  • В лесу / The Forest (Шан Серафин, ужасы, триллер , 2011) [SATRip, Профессио ...
  • Schiller / Mitternacht [2010, Ambient, WebRip]
  • Бюро находок : Потерянный и найденный / Lost and Found (Филип Хант, коротко ...
  • Информация
    Посетители, находящиеся в группе Гости, не могут оставлять комментарии к данной публикации.