вход на сайт

Имя пользователя :
Пароль :

Восстановление пароля Регистрация
Плебеи / Plebs // Сезон 1, эпизоды с 1 по 5 (из 6) (Комедия, 2013) [WEB-DLrip, Профессиональный (многоголосый закадровый от Vo-production)]
Рейтинг:
(голосов: 1)



[img]{THEME}/images/logopost.png[/img]



Плебеи / Plebs
Сезон 1, эпизоды с 1 по 5 (из 6)

Год выпуска: 2013
Страна: Великобритания
Производство: Rise Films
Жанр: Комедия

Режиссер: Сэм Лейфер
В ролях: Том Розенталь, Джоэль Фрай, Райан Сэмпсон, Софи Колкухоун, Лидия Роуз Бьюли, Карл Теобалд, Том Басден, Дун Макичен, Эдриан Скарборо, Джевон Прин

Перевод: Профессиональный (многоголосый закадровый от Vo-production)
Озвучка: Vo-production
Субтитры: Нет

Описание:Место действия — пригород Древнего Рима, в котором обитают два закадычных друга Маркус и Стилакс и их ленивый раб Грумио, постоянно страдающий от проблем в отношениях. Маркус и Стилакс всеми силами пытаются подняться вверх по социальной лестнице, при этом не забывая как следует веселиться, не смотря на козни беспощадного босса…
Список эпизодов ▼
Эпизод 01. Серия 01. Оргия / The Orgy
Эпизод 02. Серия 02. Гладиатор / The Gladiator
Эпизод 03. Серия 03. Эротическая ваза / The Erotic Vase
Эпизод 04. Серия 04. Кот с герпесом / The Herpes Cat
Эпизод 05. Серия 05. Бананы / Bananae
Эпизод 06. Серия 06.




Все раздачи сериала

Качество: WEB-DLrip
Продолжительность: по ~ 00:22:00

Формат: AVI
Видео кодек: XviD
Аудио кодек: AC3
Видео: 720x400 (1.80:1), 25 fps, XviD MPEG-4 ~1099 kbps avg, 0.15 bit/pixel
Аудио: 48 kHz, AC3 Dolby Digital, 2/0 (L,R) ch, ~192 kbps

MediaInfo ▼
Формат : AVI
Формат/Информация : Audio Video Interleave
Размер файла : 211 Мбайт
Продолжительность : 22 м.
Общий поток : 1302 Кбит/сек
Программа кодирования : VirtualDubMod 1.5.10.2 (build 2540/release)
Библиотека кодирования : VirtualDubMod build 2540/release

Видео
Идентификатор : 0
Формат : MPEG-4 Visual
Профиль формата : Advanced [email protected]
Параметр BVOP формата : 2
Параметр QPel формата : Нет
Параметр GMC формата : Без точки перехода
Параметр матрицы формата : Default (H.263)
Режим смешивания : Сжатый битовый поток
Идентификатор кодека : XVID
Идентификатор кодека/Подсказка : XviD
Продолжительность : 22 м.
Битрейт : 1100 Кбит/сек
Ширина : 720 пикселей
Высота : 400 пикселей
Соотношение сторон : 16:9
Частота кадров : 25,000 кадров/сек
Цветовое пространство : YUV
Субдискретизация насыщенности : 4:2:0
Битовая глубина : 8 бит
Тип развёртки : Прогрессивная
Метод сжатия : С потерями
Бит/(Пиксели*Кадры) : 0.153
Размер потока : 178 Мбайт (85%)
Библиотека кодирования : XviD 1.2.0.dev47 (UTC 2006-11-01)

Аудио
Идентификатор : 1
Формат : AC-3
Формат/Информация : Audio Coding 3
Расширение режима : CM (complete main)
Параметр Endianness формата : Big
Идентификатор кодека : 2000
Продолжительность : 22 м.
Вид битрейта : Постоянный
Битрейт : 192 Кбит/сек
Каналы : 2 канала
Расположение каналов : Front: L R
Частота : 48,0 КГц
Битовая глубина : 16 бит
Метод сжатия : С потерями
Размер потока : 31,1 Мбайт (15%)
Выравнивание : Разделение по промежуткам
Продолжительность промежутка : 40 мс. (1,00 видеокадр)
Время предзагрузки промежутка : 500 мс.
Внимание! Раздача ведется путем добавления новых серий ▼
При каждом добавлении создаётся новый торрент. Чтобы начать докачку новой серии, пользователям необходимо сделать следующее:
(1) остановить скачивание,
(2) удалить старый торрент у себя из клиента (старые серии удалять не надо),
(3) скачать новый торрент и запустить его у себя в клиенте вместо старого, при этом указать клиенту путь в старую папку куда и должно происходить скачивание новых серий.
Ваш клиент при этом должен произвести хеширование (проверку) старой папки (если не производит сам - помогите ему сделать это), и будет докачивать только те серии которых у вас ещё нет. Старые серии при этом не удаляются, а продолжают раздаваться!
Eсли вы уже удалили старые серии, то предотвратить повторную закачку старых серий можно, отжав галочку в соответствующих местах при запуске нового торрента. По возможности, желательно не удалять старые серии как мож
12a07f2ef704dd253220e5d483ca66f3cff471c4Плебеи / Plebs // Сезон 1, эпизоды с 1 по 5 (из 6) (Комедия, 2013) [WEB-DLrip, Профессиональный (многоголосый закадровый от Vo-production)] Плебеи / Plebs // Сезон 1, эпизоды с 1 по 5 (из 6) (Комедия, 2013) [WEB-DLrip, Профессиональный (многоголосый закадровый от Vo-production)] " />

Аплоадер: Админ, дата: 3-05-2013, 12:48, торрент скачан: 359 раз

Понравилась раздача? Посмотрите эти:
  • Одноклассники 2 / Grown Ups 2 (Деннис Дуган, Комедия, 2013) [BDRip, Професс ...
  • Сэм и Кэт / Sam & Cat // Сезон 1, эпизоды с 1 по 4 (из 40) (комедия, семейн ...
  • Южный парк / South Park // Cезон 17, Эпизоды с 1 по 2 (из 10) (Комедия, пар ...
  • Бриклберри / Brickleberry // Сезон 2, эпизод 1 (из 10) (мультфильм, комедия ...
  • Континуум / Continuum // Сезон 2, эпизоды с 1 по 2 (из 10) (фантастика, тр ...
  • Континуум: Вебсериал / Continuum Web Series // Сезон 1, эпизоды с 1 по 9 (и ...
  • Семья алкоголика // Эпизоды с 1 по 6 (из ?) (pеалити, комедия, сериал, 2012 ...
  • Плебеи / Plebs // Сезон 1, эпизоды с 1 по 2 (из 6) (Комедия, 2013) [HDTVRip ...
  • Мой сосед - красавчик / Neighbor Hottie / Flower Boy Next Door // Сезон 1, ...
  • Мой сосед - красавчик / Neighbor Hottie / Flower Boy Next Door // Сезон 1, ...
  • Мой сосед - красавчик / Neighbor Hottie / Flower Boy Next Door // Сезон 1, ...
  • Глушь / Resurrection County (Матт Зеттел, Ужасы,триллер, 2008) [DVDRip, Про ...
  • Двенадцать бедствий на Рождество / The 12 Disasters of Christmas (Стивен Р. ...
  • Контакт (Связь) / Touch // Сезон 1, эпизод 1 (из 3) (Драма, 2012) [WEB-DLRi ...
  • Мой сосед - красавчик / Neighbor Hottie / Flower Boy Next Door // Сезон 1, ...
  • Кажется, я люблю свою жену / I Think I Love My Wife (Крис Рок, Драма, мелод ...
  • Бог любви / God of Love (Люк Мэзени, Короткометражка, фэнтези, комедия, мел ...
  • Заместитель / Il supplente (Андреа Жублин, Короткометражка, комедия, 2007) ...
  • Симпсоны / The Simpsons // Сезон 24, эпизоды c 1 по 8 (из ??) (мультфильм, ...
  • Покорить высоту / Take It to the Limit (Сэм Кит / Sam Kieth, семейный, 2000 ...
  • Боец из трущоб / Gutter King (Кейт Алан Моррис / Keith Alan Morris, боевик, ...
  • Синбад (Синдбад) / Sinbad // Сезон 1, эпизод с 1 по 3 (из 12) (фэнтэзи, пр ...
  • Глаз шторма / The Eye of the Storm (Фред Скеписи, Драма, 2011) [HDRip, Проф ...
  • Семья алкоголика // Эпизоды с 1 по 5 (из ?) (pеалити, комедия, сериал, 2012 ...
  • Сдохни, Джон Такер / John Tucker Must Die (Бетти Томас, мелодрама, комедия, ...
  • Информация
    Посетители, находящиеся в группе Гости, не могут оставлять комментарии к данной публикации.