вход на сайт

Имя пользователя :
Пароль :

Восстановление пароля Регистрация
[Трейлер] Ходячие Мертвецы / The Walking Dead [3-й сезон] (Эрнест Р. Дикерсон, Гай Ферленд, Гвинет Хордер-Пэйтон, ужасы, триллер, драма, 2012) [WEBRip, Профессиональный (многоголосый, закадровый), [14 октября 2012]]
Рейтинг:
(голосов: 1)



[img]{THEME}/images/logopost.png[/img]





¤ Год выпуска: 2012
¤ Страна:США
¤ Производство: AMC Studios, American Movie Classics (AMC)
¤ Жанр: триллер

¤ Режиссёр: Эрнест Р. Дикерсон, Гай Ферленд, Гвинет Хордер-Пэйтон
¤ В ролях: Эндрю Линкольн, Сара Уэйн Кэллис, Лори Холден, Стивен Юн, Чендлер Риггз, Джон Бернтал, Джефри ДеМанн, Норман Ридус

¤ Перевод: Профессиональный (многоголосый, закадровый)
¤ Озвучка: Fox Crime
¤ Субтитры: нет

« Описание »
«Хoдячиe мeртвeцы» — новый, третий по счёту, сезон американского зомби-апокалиптического телесериала, разработанный Фрэнком Дарабонтом, основанный на одноименной серии комиксов, созданной Робертом Киркманом, Тони Муром и Чарли Адлардом. По данным телеканала AMC, который создаёт этот сериал, выход третьего сезона запланирован на октябрь 2012 года, и он будет состоять из 16 серий. Причём, по заявлению исполнительного продюсера сериала Роберта Киркмана, третий сезон будет разбит на две половины, по восемь серий каждая, и они будут транслироваться с разрывом во времени, так же, как это было использовано во втором сезоне.



« Тех.Данные »
¤ Качество: WEBRip
¤ Продолжительность: ~ 00:04:07 часа

Премьера (мир): 14 октября 2012
Премьера (РФ): ???

¤ Формат: MPEG-4
¤ Видео: 1280x720 (16:9) 29.970 fps, AVC ~2766 kbps avg, 0.051 bit/pixel
¤ Аудио: 44.100 kHz, Advanced Audio Codec, 2/0 [L,R] ch, ~192.00 kbps

MediaInfo ▼TextОбщее
Полное имя : D:DownloadsХодячие мертвецы 3 Сезон.mp4
Формат : MPEG-4
Профиль формата : Base Media / Version 2
Идентификатор кодека : mp42
Размер файла : 47,1 Мбайт
Продолжительность : 4 м. 7 с.
Режим общего битрейта : Переменный
Общий поток : 1592 Кбит/сек
Дата кодирования : UTC 2012-07-30 06:25:32
Дата пометки : UTC 2012-07-30 06:25:32
gsst : 0
gstd : 248081
gssd : BD49AA8E7HH1345875347520163
gshh : o-o---preferred---kazakhtel-tse1---v20---lscache6.c.youtube.com

Видео
Идентификатор : 1
Формат : AVC
Формат/Информация : Advanced Video Codec
Профиль формата : [email protected]
Параметр CABAC формата : Да
Параметр ReFrames формата : 1 кадр
Идентификатор кодека : avc1
Идентификатор кодека/Информация : Advanced Video Coding
Продолжительность : 4 м. 7 с.
Битрейт : 1398 Кбит/сек
Максимальный битрейт : 3054 Кбит/сек
Ширина : 1280 пикселей
Высота : 720 пикселей
Соотношение сторон : 16:9
Режим частоты кадров : Постоянный
Частота кадров : 29,970 кадров/сек
Цветовое пространство : YUV
Субдискретизация насыщенности : 4:2:0
Битовая глубина : 8 бит
Тип развёртки : Прогрессивная
Бит/(Пиксели*Кадры) : 0.051
Размер потока : 41,3 Мбайт (88%)
Дата пометки : UTC 2012-07-30 06:25:32

Аудио
Идентификатор : 2
Формат : AAC
Формат/Информация : Advanced Audio Codec
Профиль формата : LC
Идентификатор кодека : 40
Продолжительность : 4 м. 7 с.
Вид битрейта : Переменный
Битрейт : 192 Кбит/сек
Максимальный битрейт : 201 Кбит/сек
Каналы : 2 канала
Расположение каналов : Front: L R
Частота : 44,1 КГц
Метод сжатия : С потерями
Размер потока : 5,67 Мбайт (12%)
Заголовок : IsoMedia File Produced by Google, 5-11-2011
Дата кодирования : UTC 2012-07-30 06:25:32
Дата пометки : UTC 2012-07-30 06:25:32





8288ae740fbc886f7d1c13442dff106b6c17e6fc[Трейлер] Ходячие Мертвецы / The Walking Dead [3-й сезон] (Эрнест Р. Дикерсон, Гай Ферленд, Гвинет Хордер-Пэйтон, ужасы, триллер, драма, 2012) [WEBRip, Профессиональный (многоголосый, закадровый), [14 октября 2012]] [Трейлер] Ходячие Мертвецы / The Walking Dead [3-й сезон] (Эрнест Р. Дикерсон, Гай Ферленд, Гвинет Хордер-Пэйтон, ужасы, триллер, драма, 2012) [WEBRip, Профессиональный (многоголосый, закадровый), [14 октября 2012]] " />

Аплоадер: Админ, дата: 25-08-2012, 13:14, торрент скачан: 359 раз

Понравилась раздача? Посмотрите эти:
  • Ходячие мертвецы / The Walking Dead // Сезон 4, эпизоды с 1 по 8 (из 16) (У ...
  • Ходячие мертвецы / The Walking Dead // Сезон 4, эпизоды с 1 по 8 (из 16) (у ...
  • Ходячие мертвецы / The Walking Dead // Сезон 4, эпизоды с 1 по 5 (из 16) (у ...
  • Ходячие мертвецы / The Walking Dead // Сезон 4, эпизоды с 1 по 5 (из 16) (У ...
  • Ходячие мертвецы / The Walking Dead // Сезон 4, эпизоды с 1 по 4 (из 16) (у ...
  • Ходячие мертвецы / The Walking Dead // Сезон 4, эпизоды с 1 по 4 (из 16) (У ...
  • Герои / Закаты алые [2012, Pop, WebRip]
  • Miranda Cosgrove / Dancing Crazy [2011, Pop, WEB-DLRip 720p]
  • Ходячие мертвецы / The Walking Dead // Сезон 4, эпизоды с 1 по 3 (из 16) (у ...
  • Ходячие мертвецы / The Walking Dead // Сезон 4, эпизоды с 1 по 3 (из 16) (у ...
  • Ходячие мертвецы / The Walking Dead // Сезон 4, эпизоды с 1 по 3 (из 16) (У ...
  • Ходячие мертвецы / The Walking Dead // Сезон 4, эпизоды с 1 по 3 (из 16) (у ...
  • Ходячие мертвецы / The Walking Dead // Сезон 4, эпизоды с 1 по 3 (из 16) (у ...
  • Ariana Grande - ft. Mac Miller / The Way [2013, Pop, WEB-DLRip 1080p]
  • Принуждение к прививке / Impf-Zwang (документальный, 2012) [HD 720p, Профес ...
  • [Фильм о фильме] Ходячие мертвецы / The Walking Dead (ужасы, триллер, фанта ...
  • E-40 & Too Short Dump Truck Feat. Travis Porter/ Function Music [2012, Rap| ...
  • Нонито Донэйр - Хорхе Арсе / Nonito Donaire vs Jorge Arce [Бокс, 15.12.2012 ...
  • Лион / День за днем (Интро) [2012, Rap, WebRip]
  • The Crazy Frogs / The Ding Dong Song [2012, Pop, WEBRip]
  • Guf / Hip-Hop All Stars 2012. Гуф Live. [2012, Rap,WebRip]
  • Қайрат Нұртас / Ол сен емес [2012, Pop, WebRip ]
  • Oxxxymiron и Луперкаль / Ultima Thule [Unofficial Video] [2012, Rap, WebRip ...
  • Tyga ft. Joe Moses/ Ratchets[2012, Rap, WebRip]
  • Птаха, Musa, Док / Миф [2012, Rap, WEBRip]
  • Информация
    Посетители, находящиеся в группе Гости, не могут оставлять комментарии к данной публикации.